#TITLE:OVER-DXY!!;
#SUBTITLE:;
#ARTIST:DJ Potatoe;
#TITLETRANSLIT:;
#SUBTITLETRANSLIT:;
#ARTISTTRANSLIT:;
#CREDIT:;
#BANNER:OverDXY-banner.png;
#BACKGROUND:OverDXY-bg.png;
#LYRICSPATH:;
#CDTITLE:;
#MUSIC:OverDXY.mp3;
#MUSICLENGTH:100.702;
#OFFSET:-0.200;
#SAMPLESTART:60.165;
#SAMPLELENGTH:12.000;
#SELECTABLE:YES;
#BPMS:0.000=160.000;
#STOPS:;
#BGCHANGES:;
#FIRSTBEAT:4.000;

#LASTBEAT:264.000;

#SONGFILENAME:Songs/ERICth MIX 2nd Style/overdxy/overdxy.sm;

#HASMUSIC:1;

#HASBANNER:1;


//---------------dance-single - MANIAC----------------
#NOTES:
     dance-single:
     MANIAC:
     hard:
     8:
     0.582,0.590,0.209,0.248,0.094,364.000,21.000,25.000,0.000,0.000:

0000
0000
0000
0000
,
0000
0000
0000
0000
,
0000
0000
0000
0000
,
0000
0000
0000
0000
,
0000
0000
0010
0000
0000
1000
0000
0000
0100
0000
0000
1000
0000
0000
0010
0000
,
0100
0001
1000
0001
0000
0001
0000
0000
,
0100
0001
1000
0001
0000
0001
0000
0000
,
0100
0001
1000
0001
0000
0001
0000
0000
,
0100
0001
1000
0001
0000
0001
0100
1000
,
0200
0000
0000
0301
,
1100
0000
0000
0101
0000
0001
1000
0100
,
0002
0000
0000
0103
,
1010
0000
0000
0011
0000
0100
0001
1000
,
0020
0000
0000
0130
,
2000
0000
0000
3020
0000
0130
0010
0100
,
0001
0101
1010
0110
,
2002
0000
0000
0000
3003
0000
0000
0000
0000
0000
0010
0000
0000
1000
0000
0000
,
0001
0000
1000
0000
0100
0000
1000
0001
0000
0001
1000
0000
0100
0000
0000
0000
,
1000
0000
0001
0000
0100
0000
0001
1000
0000
1000
0001
0000
0100
0000
0000
0000
,
0010
0000
0100
0000
0010
0000
0100
0010
0000
0010
0100
0000
0001
0000
0000
0000
,
0100
0000
0010
0000
0100
0000
0010
0100
0000
0000
0001
0000
0000
0100
0000
0000
,
1000
0000
0001
0000
0100
0000
0001
0010
0000
0010
0001
0000
1000
0000
0000
0000
,
0001
0000
1000
0000
0100
0000
1000
0010
0000
0010
1000
0000
0001
0000
0000
0000
,
1000
0000
0001
0000
1000
0000
0001
1000
0000
1000
0001
0000
1000
0000
0000
0000
,
1001
1001
1001
1001
,
0210
0010
0001
0001
,
0302
0100
1000
1000
,
2003
0001
0010
0010
,
3020
1000
0100
0100
,
0230
0010
0001
0001
,
0302
0100
1000
1000
,
2003
0001
0010
0010
,
3020
1000
0100
0100
,
1030
0100
0001
0100
1000
0100
0001
0000
,
0001
0100
1000
0100
0001
0100
1000
0000
,
0010
1000
0100
1000
0010
1000
0100
0000
,
0010
0001
0100
0001
0010
0001
0100
0000
,
1000
0001
1000
0001
1000
0001
1000
0000
,
0010
0100
0010
0100
0010
0100
0010
0000
,
1000
0100
0010
0001
1000
0100
0010
0000
,
1000
0000
0000
0000
1000
0000
1000
0000
0000
0000
0010
0000
0000
0001
0000
0000
,
0100
0001
1000
0100
0001
0100
0010
0001
,
0010
1000
0010
0100
0010
0100
0001
1000
,
0100
0010
0001
0100
0010
1000
0100
1000
,
0100
0010
0001
0100
0010
0100
0001
0100
,
0010
0100
0010
1000
0100
0001
0100
1000
,
0010
0001
0010
1000
0100
1000
0010
0100
,
0010
0001
0010
1000
0100
1000
0001
1000
,
0001
0000
1000
0000
0001
1000
0001
0000
,
0100
0001
1000
0100
0001
0100
0010
0001
,
0010
1000
0010
0100
0010
0100
0001
1000
,
0100
0010
0001
0100
0010
1000
0100
1000
,
0100
0010
0001
0100
0010
0100
0001
0100
,
0010
0100
0010
1000
0100
0001
0100
1000
,
0010
0001
0010
1000
0100
1000
0010
0100
,
0010
0001
0010
1000
0100
1000
0001
1000
,
0001
0000
1000
0000
0001
1000
0001
0000
,
1000
0000
1100
0000
0100
1000
0100
0000
,
0001
0000
0101
0000
0001
0100
0001
0000
,
0001
0000
0011
0000
0010
0001
0010
0000
,
1000
0000
1010
0000
1000
0010
1000
0010
,
1000
0000
0000
2002
0000
3003
0001
1000
,
0100
0000
0000
0220
0000
0330
0010
0100
,
0001
0000
0000
2002
0000
3003
1000
0001
,
0100
0000
0000
0220
0000
0330
0010
0100
,
2000
0000
0000
0000
0000
0000
0002
0000
3003
0000
1000
0000
0000
0001
0000
0000
,
0100
0000
0000
0000;

//---------------dance-single - ANOTHER----------------
#NOTES:
     dance-single:
     ANOTHER:
     medium:
     7:
     0.373,0.459,0.129,0.030,0.000,247.000,13.000,3.000,0.000,0.000:

0000
0000
0000
0000
,
0010
0000
0001
0000
,
0100
0000
0010
0000
,
1000
0000
0001
0000
,
0100
0000
0000
0000
0010
0000
0000
1000
,
0100
0001
0100
0000
,
0001
1000
0100
0000
,
1000
0001
0100
0010
,
1000
0000
1000
0000
1000
0000
1000
0001
,
1000
0100
0000
0010
,
1000
0000
0000
0001
0000
1000
0100
1000
,
0010
0000
0000
0001
,
0010
0000
0000
0001
0000
1000
0100
0010
,
0100
0000
0000
0000
,
2002
0000
0000
0000
0000
0000
3000
0003
,
1001
0100
1000
0010
,
1000
0000
0001
1000
0000
0100
0000
0000
,
0100
0010
1000
0100
,
0010
0000
0001
0000
1000
0100
0010
0000
,
0001
0000
0100
0000
0010
0000
1000
0010
,
0100
0000
0001
0000
1000
0000
0010
0100
,
0001
0001
0100
1000
,
0100
0010
0100
0001
,
0101
0000
0000
0000
,
0101
1100
0101
1100
,
0001
0000
1000
0000
0100
0000
0010
0001
,
0100
0000
0001
0000
1000
0000
0010
0001
,
0100
0000
0001
0000
1000
0010
0100
0010
,
0100
0010
0001
0001
,
1000
0100
0010
0000
,
0001
0100
0010
0000
,
1000
0010
0001
0100
,
1000
0000
0010
0000
0001
0000
0100
1000
,
0010
0000
0100
0000
1000
0001
0010
0000
,
0100
0000
1000
0010
0000
0000
0100
0000
,
1000
0000
0100
0010
0000
0000
0001
0000
,
1000
0000
0010
0100
0000
0000
0001
0000
,
1000
0000
0001
0100
0000
0000
0001
0000
,
1000
0000
0010
0100
0000
0000
0001
0000
,
1000
0000
0010
0100
0000
0000
0001
0000
,
1000
0000
0000
0000
,
1001
0100
0010
0000
0000
0000
0001
0000
,
1000
0100
0010
0000
0001
0000
0100
0000
,
0110
0001
1000
0000
0001
0000
0000
0000
,
0100
0000
0001
1000
0100
0000
0000
0001
,
0100
1001
0000
0100
,
0010
0010
0011
0000
,
1001
0100
0010
0001
1000
0000
0000
0000
,
0100
0000
0010
0000
0100
0010
0100
0000
,
1001
0100
0010
1000
,
0001
0010
0100
1000
,
0001
0000
0100
0010
0100
0001
1000
0000
,
1000
0100
0001
0100
1000
0100
0001
0100
,
1000
0000
0010
0000
1000
0010
1000
0000
,
0001
0000
1000
0000
0010
1000
0001
0000
,
0010
0001
1000
0000
0010
1000
0001
0000
,
0010
0001
1000
0000
0010
0000
0010
0000
,
2000
0000
0000
0000
,
0001
0000
0000
0000
0001
0000
0001
0100
,
0001
3000
0000
0000
,
1000
0000
0000
0000
0010
0000
0000
0001
,
0100
0000
0000
0000
0000
0000
0000
0001
,
0100
0000
0000
1000
0000
0000
0000
0001
,
0100
0000
0000
1000
0000
0000
0001
0100
,
0000
0000
0000
0000
0001
0000
0000
1000
,
0100
0000
0000
0001
0000
1000
0000
0000
,
0100
0000
0000
0000;

//---------------dance-single - BASIC----------------
#NOTES:
     dance-single:
     BASIC:
     easy:
     5:
     0.287,0.360,0.258,0.139,0.000,162.000,26.000,14.000,0.000,0.000:

0000
0000
0000
0000
,
1001
0000
0000
0000
,
0100
0000
0000
0000
,
0010
0000
0000
0000
,
1000
0010
1000
0001
,
0100
0000
0000
0000
,
0001
0000
0000
0000
,
0011
0000
0000
0000
,
1000
0001
0100
0010
,
0110
0000
0000
0000
,
0002
0000
0000
0003
,
1000
0000
0010
0000
,
0110
0000
0000
0001
,
1000
0000
0100
0000
,
0010
0000
0100
0000
,
0001
0100
0010
0100
,
0001
0000
0000
0000
,
0001
1000
0001
0000
,
1000
0001
1001
0000
,
0010
0100
0010
0000
,
0010
0100
0110
0000
,
0010
1000
0010
0000
,
0010
1000
1010
0000
,
0010
0001
0010
0000
,
0010
0001
0011
0000
,
2000
0000
0000
0000
,
3002
0000
0000
0000
,
0203
0000
0000
0000
,
0302
0000
0000
0000
,
2003
0000
0000
0000
,
3002
0000
0000
0000
,
0203
0000
0000
0000
,
2300
0000
0000
0000
,
3002
0000
0000
0000
,
0203
0000
0000
0010
,
0310
0001
1000
0000
,
0002
0000
1000
1000
,
1003
0010
0100
0000
,
0110
0000
0000
0000
,
0101
0000
1100
0000
,
0101
1100
0101
0000
,
0010
0100
0001
1000
,
0010
0100
0001
0010
,
0100
1000
0010
0100
,
0011
0100
0010
1000
,
0100
0010
0100
0100
,
0010
0001
1000
0001
,
0100
0010
0010
1000
,
0001
1000
0001
1000
,
1001
0001
0100
0001
,
0010
1000
1100
0001
,
0100
0010
0100
0010
,
1000
0001
0100
0010
,
0010
0100
1000
0001
,
1000
1000
0001
0001
,
0100
0010
1000
0001
,
0100
0010
0001
0001
,
0011
0000
0000
0000
,
0001
0000
0100
0010
,
1010
0000
0000
0000
,
0010
0000
0100
1000
,
0110
0000
0001
0000
,
0110
0000
1000
0000
,
0110
0000
0001
0000
,
0110
0110
0110
0000
,
0220
0000
0000
0330
,
0001
0000
0000
0000;
